ユーザ用ツール

サイト用ツール


linux:video_download

差分

この文書の現在のバージョンと選択したバージョンの差分を表示します。

この比較画面にリンクする

両方とも前のリビジョン 前のリビジョン
次のリビジョン
前のリビジョン
linux:video_download [2020/01/20 05:45]
matoken [プレイリスト作成]
linux:video_download [2020/04/17 20:50] (現在)
matoken [Video DownloadHelper]
ライン 19: ライン 19:
   * [Video DownloadHelper – 🦊 Firefox \(ja\) 向け拡張機能を入手](https://​addons.mozilla.org/​ja/​firefox/​addon/​video-downloadhelper/​)   * [Video DownloadHelper – 🦊 Firefox \(ja\) 向け拡張機能を入手](https://​addons.mozilla.org/​ja/​firefox/​addon/​video-downloadhelper/​)
   * [Video DownloadHelper \- Chrome ウェブストア](https://​chrome.google.com/​webstore/​detail/​video-downloadhelper/​lmjnegcaeklhafolokijcfjliaokphfk)   * [Video DownloadHelper \- Chrome ウェブストア](https://​chrome.google.com/​webstore/​detail/​video-downloadhelper/​lmjnegcaeklhafolokijcfjliaokphfk)
 +
 +
 +### ダウンロードした動画に音声が含まれていない
 +
 +```
 +$ ffprobe -i 放課後ていぼう日誌\ アニメ\ 無料動画GYAO\!.mp4 2>&1 |grep -i stream
 +    Stream #0:0(und): Video: h264 (Main) (avc1 / 0x31637661),​ yuv420p(tv, bt709), 854x480 [SAR 1:1 DAR 427:240], 1495 kb/s, 29.97 fps, 29.97 
 +tbr, 90k tbn, 59.94 tbc (default)
 +```
 +
 +Video DownloadHelper で動画を確認して解像度の書かれていない動画が音声のみのデータなのでそれもダウンロードする.
 +
 +```
 +$ ffprobe -i 放課後ていぼう日誌\ アニメ\ 無料動画GYAO\!-1.mp4 2>&1 |grep -i stream
 +    Stream #0:0(und): Audio: aac (LC) (mp4a / 0x6134706D),​ 48000 Hz, stereo, fltp, 127 kb/s (default)
 +```
 +
 +結合する.
 +
 +```
 +$ ffmpeg -i 放課後ていぼう日誌\ アニメ\ 無料動画GYAO\!.mp4 -i 放課後ていぼう日誌\ アニメ\ 無料動画GYAO\!-1.mp4 -c:v copy -c:a copy 放課後ていぼう日誌.mp4
 +```
 +
 +
  
 ## youtube-dl ## youtube-dl
ライン 135: ライン 159:
 ※abema.tvをPCのウェブブラウザで見るとしょっちゅう解像度変更->​映像と音が途切れて辛い->​ウェブブラウザからは解像度指定できない(◞‸◟) ※abema.tvをPCのウェブブラウザで見るとしょっちゅう解像度変更->​映像と音が途切れて辛い->​ウェブブラウザからは解像度指定できない(◞‸◟)
 Streamlinkで解像度を下げて再生すると止まらず快適.とか.(Androidアプリ版にはいくつかの解像度の選択が可能) Streamlinkで解像度を下げて再生すると止まらず快適.とか.(Androidアプリ版にはいくつかの解像度の選択が可能)
 +
 +
 +abema.tv は動画のURLが連番なのでこんな感じでシリーズ動画を順に再生できる.
 +
 +```
 +$ EP=1; while :;do if ! streamlink https://​abema.tv/​video/​episode/​25-59_s1_p$EP 240p;then break;fi ;EP=$(( $EP + 1 ));done
 +```
 +
  
  
linux/video_download.1579466714.txt.gz · 最終更新: 2020/01/20 05:45 by matoken